Enable / Włącz Javascript
 Widok 
 Kategorie 
 Nitro Torrent w sieci 
 Top 10 użytkowników 
 300: Początek imperium - 300: Rise of an Empire *2014* 3D.1080p.BluRay.Half-SBS.DTS-RARBG [ENG]

300: Początek imperium - 300: Rise of an Empire *2014* 3D.1080p.BluRay.Half-SBS.DTS-RARBG [ENG]
Kategoria: » » »
Dodane: 03/10/2017
Rozmiar: 11.71 GB
Uploader: tomysparow559 (10)
seed(ów): 0
leecher(ów): 0
Pobrane: 9
Komentarzy: 0
Pobierz Torrent Pobierz Torrent
Pobierz [Magnet] Pobierz [Magnet]

Obserwuj
Raportuj
==================
...::: INFO :::...
==================

gatunek: Dramat, Akcja
produkcja: USA
premiera: 7 marca 2014 (Polska) 5 marca 2014 (świat)
reżyseria: Noam Murro
scenariusz: Kurt Johnstad, Zack Snyder

==================
...::: OPIS :::...
==================

Film "300: Początek imperium" na podstawie najnowszej powieści graficznej Franka Millera pt: "Kserkses", nakręcony w stylu hitu kinowego "300", to kolejny rozdział epickiej sagi opowiadający tym razem w scenerii bitwy morskiej  historię greckiego generała Temistoklesa, który próbuje zjednoczyć Grecję, idąc na bitwę, która zmieni bieg wojny. "300: Początek imperium" ukazuje losy Temistoklesa stającego przeciwko wielkiej inwazji wojsk perskich, którymi dowodzą Kserkses, śmiertelnik obdarowany boskimi siłami, oraz Artemizja, mściwa dowódczyni perskiej floty morskiej.

====================
...::: OBSADA :::...
====================

Sullivan Stapleton...Temistokles
Eva Green...Artemizja
Lena Headey...Królowa Gorgo
Hans Matheson...Aesyklos
Hans Matheson jako Aesyklos
Rodrigo Santoro...Xerxes
Rodrigo Santoro jako Xerxes
Callan Mulvey...Scyllias
David Wenham...Dilios
Jack O'Connell...Calisto



[Oryginalny obrazek]

http://imgur.com/PW06Rd5


=======================
...::: DANE TECHNICZNE :::...
=======================

Info:
Video
ID                                       : 1
Format                                   : AVC
Format/Info                              : Advanced Video Codec
Format profile                           : High@L4.1
Format settings, CABAC                   : Yes
Format settings, ReFrames                : 4 frames
Format settings, GOP                     : M=7, N=9
Codec ID                                 : V_MPEG4/ISO/AVC
Duration                                 : 1h 42mn
Bit rate                                 : 14.5 Mbps
Width                                    : 1 920 pixels
Height                                   : 1 080 pixels
Display aspect ratio                     : 16:9
Frame rate mode                          : Constant
Frame rate                               : 23.976 fps
Color space                              : YUV
Chroma subsampling                       : 4:2:0
Bit depth                                : 8 bits
Scan type                                : Progressive
Bits/(Pixel*Frame)                       : 0.292
Stream size                              : 10.4 GiB (89%)
Writing library                          : x264 core 133 r2334 a3ac64b
Default                                  : Yes
Forced                                   : No

Audio
ID                                       : 2
Format                                   : DTS
Format/Info                              : Digital Theater Systems
Mode                                     : 16
Format settings, Endianness              : Big
Codec ID                                 : A_DTS
Duration                                 : 1h 42mn
Bit rate mode                            : Constant
Bit rate                                 : 1 509 Kbps
Channel(s)                               : 6 channels
Channel positions                        : Front: L C R, Side: L R, LFE
Sampling rate                            : 48.0 KHz
Bit depth                                : 24 bits
Compression mode                         : Lossy
Stream size                              : 1.08 GiB (9%)
Language                                 : English
Default                                  : Yes
Forced                                   : No

Text #1
ID                                       : 3
Format                                   : PGS
Muxing mode                              : zlib
Codec ID                                 : S_HDMV/PGS
Codec ID/Info                            : The same subtitle format used on BDs/HD-DVDs
Language                                 : English
Default                                  : Yes
Forced                                   : No

Text #2
ID                                       : 4
Format                                   : PGS
Muxing mode                              : zlib
Codec ID                                 : S_HDMV/PGS
Codec ID/Info                            : The same subtitle format used on BDs/HD-DVDs
Language                                 : French
Default                                  : No
Forced                                   : No

Text #3
ID                                       : 5
Format                                   : PGS
Muxing mode                              : zlib
Codec ID                                 : S_HDMV/PGS
Codec ID/Info                            : The same subtitle format used on BDs/HD-DVDs
Language                                 : Spanish
Default                                  : No
Forced                                   : No

Text #4
ID                                       : 6
Format                                   : PGS
Muxing mode                              : zlib
Codec ID                                 : S_HDMV/PGS
Codec ID/Info                            : The same subtitle format used on BDs/HD-DVDs
Language                                 : Portuguese
Default                                  : No
Forced                                   : No

Torrent downloaded from http://rarbg.to


Dostępne napisy
Brak napisów
Szczegóły torrenta
Tracker http://tracker.trackerfix.com:80/announce
Multitracker [ Pokaż ]
Kategoria: » » » [Zgłoś błąd]
Dodane 03-10-2017
Podziękowali:
0 użytkowników 
Podziękuj!
Pokaż / Ukryj pliki:
Nazwa pliku Rozmiar
300.Rise.of.an.Empire.2014.1080p.BluRay.Half-SBS.DTS-RARBG.mkv 11.71 GB
RARBG.com.mp4 992.93 KB
300.Rise.of.an.Empire.2014.1080p.BluRay.Half-SBS.DTS-RARBG.nfo 4.34 KB
RARBG.com.txt 0.03 KB
4 plików
Brak komentarzy...
Jon Favreau | 进击的巨人 | Eps1 Berlin Station Season 3